#TITLE:bag;
#SUBTITLE:(STARCHF0WL EDIT LOLOLOL);
#ARTIST:RevenG;
#TITLETRANSLIT:;
#SUBTITLETRANSLIT:;
#ARTISTTRANSLIT:;
#CREDIT:;
#BANNER:bag.png;
#BACKGROUND:bag-bg.png;
#LYRICSPATH:;
#CDTITLE:;
#MUSIC:Bag.mp3;
#OFFSET:-3.747;
#SAMPLESTART:59.120;
#SAMPLELENGTH:12.000;
#SELECTABLE:YES;
#BPMS:0.000=4160.000;
#STOPS:;
#BGCHANGES:;
// cache tags:
#FIRSTBEAT:512.000;
#LASTBEAT:6229.333;
#SONGFILENAME:Songs/Music V.I.P ^_^/bag (STARCHF0WL EDIT LOLOLOL)/bag.sm;
#HASMUSIC:1;
#HASBANNER:1;
#MUSICLENGTH:99.770;
// end cache tags

//---------------dance-single - ----------------
#NOTES:
     dance-single:
     :
     Hard:
     10:
     0.639,1.000,0.000,0.150,1.000,431.000,0.000,15.000,0.000,0.000:  // measure 1
0000
0000
0000
0000
,  // measure 2
0000
0000
0000
0000
,  // measure 3
0000
0000
0000
0000
,  // measure 4
0000
0000
0000
0000
,  // measure 5
0000
0000
0000
0000
,  // measure 6
0000
0000
0000
0000
,  // measure 7
0000
0000
0000
0000
,  // measure 8
0000
0000
0000
0000
,  // measure 9
0000
0000
0000
0000
,  // measure 10
0000
0000
0000
0000
,  // measure 11
0000
0000
0000
0000
,  // measure 12
0000
0000
0000
0000
,  // measure 13
0000
0000
0000
0000
,  // measure 14
0000
0000
0000
0000
,  // measure 15
0000
0000
0000
0000
,  // measure 16
0000
0000
0000
0000
,  // measure 17
0000
0000
0000
0000
,  // measure 18
0000
0000
0000
0000
,  // measure 19
0000
0000
0000
0000
,  // measure 20
0000
0000
0000
0000
,  // measure 21
0000
0000
0000
0000
,  // measure 22
0000
0000
0000
0000
,  // measure 23
0000
0000
0000
0000
,  // measure 24
0000
0000
0000
0000
,  // measure 25
0000
0000
0000
0000
,  // measure 26
0000
0000
0000
0000
,  // measure 27
0000
0000
0000
0000
,  // measure 28
0000
0000
0000
0000
,  // measure 29
0000
0000
0000
0000
,  // measure 30
0000
0000
0000
0000
,  // measure 31
0000
0000
0000
0000
,  // measure 32
0000
0000
0000
0000
,  // measure 33
0000
0000
0000
0000
,  // measure 34
0000
0000
0000
0000
,  // measure 35
0000
0000
0000
0000
,  // measure 36
0000
0000
0000
0000
,  // measure 37
0000
0000
0000
0000
,  // measure 38
0000
0000
0000
0000
,  // measure 39
0000
0000
0000
0000
,  // measure 40
0000
0000
0000
0000
,  // measure 41
0000
0000
0000
0000
,  // measure 42
0000
0000
0000
0000
,  // measure 43
0000
0000
0000
0000
,  // measure 44
0000
0000
0000
0000
,  // measure 45
0000
0000
0000
0000
,  // measure 46
0000
0000
0000
0000
,  // measure 47
0000
0000
0000
0000
,  // measure 48
0000
0000
0000
0000
,  // measure 49
0000
0000
0000
0000
,  // measure 50
0000
0000
0000
0000
,  // measure 51
0000
0000
0000
0000
,  // measure 52
0000
0000
0000
0000
,  // measure 53
0000
0000
0000
0000
,  // measure 54
0000
0000
0000
0000
,  // measure 55
0000
0000
0000
0000
,  // measure 56
0000
0000
0000
0000
,  // measure 57
0000
0000
0000
0000
,  // measure 58
0000
0000
0000
0000
,  // measure 59
0000
0000
0000
0000
,  // measure 60
0000
0000
0000
0000
,  // measure 61
0000
0000
0000
0000
,  // measure 62
0000
0000
0000
0000
,  // measure 63
0000
0000
0000
0000
,  // measure 64
0000
0000
0000
0000
,  // measure 65
0000
0000
0000
0000
,  // measure 66
0000
0000
0000
0000
,  // measure 67
0000
0000
0000
0000
,  // measure 68
0000
0000
0000
0000
,  // measure 69
0000
0000
0000
0000
,  // measure 70
0000
0000
0000
0000
,  // measure 71
0000
0000
0000
0000
,  // measure 72
0000
0000
0000
0000
,  // measure 73
0000
0000
0000
0000
,  // measure 74
0000
0000
0000
0000
,  // measure 75
0000
0000
0000
0000
,  // measure 76
0000
0000
0000
0000
,  // measure 77
0000
0000
0000
0000
,  // measure 78
0000
0000
0000
0000
,  // measure 79
0000
0000
0000
0000
,  // measure 80
0000
0000
0000
0000
,  // measure 81
0000
0000
0000
0000
,  // measure 82
0000
0000
0000
0000
,  // measure 83
0000
0000
0000
0000
,  // measure 84
0000
0000
0000
0000
,  // measure 85
0000
0000
0000
0000
,  // measure 86
0000
0000
0000
0000
,  // measure 87
0000
0000
0000
0000
,  // measure 88
0000
0000
0000
0000
,  // measure 89
0000
0000
0000
0000
,  // measure 90
0000
0000
0000
0000
,  // measure 91
0000
0000
0000
0000
,  // measure 92
0000
0000
0000
0000
,  // measure 93
0000
0000
0000
0000
,  // measure 94
0000
0000
0000
0000
,  // measure 95
0000
0000
0000
0000
,  // measure 96
0000
0000
0000
0000
,  // measure 97
0000
0000
0000
0000
,  // measure 98
0000
0000
0000
0000
,  // measure 99
0000
0000
0000
0000
,  // measure 100
0000
0000
0000
0000
,  // measure 101
0000
0000
0000
0000
,  // measure 102
0000
0000
0000
0000
,  // measure 103
0000
0000
0000
0000
,  // measure 104
0000
0000
0000
0000
,  // measure 105
0000
0000
0000
0000
,  // measure 106
0000
0000
0000
0000
,  // measure 107
0000
0000
0000
0000
,  // measure 108
0000
0000
0000
0000
,  // measure 109
0000
0000
0000
0000
,  // measure 110
0000
0000
0000
0000
,  // measure 111
0000
0000
0000
0000
,  // measure 112
0000
0000
0000
0000
,  // measure 113
0000
0000
0000
0000
,  // measure 114
0000
0000
0000
0000
,  // measure 115
0000
0000
0000
0000
,  // measure 116
0000
0000
0000
0000
,  // measure 117
0000
0000
0000
0000
,  // measure 118
0000
0000
0000
0000
,  // measure 119
0000
0000
0000
0000
,  // measure 120
0000
0000
0000
0000
,  // measure 121
0000
0000
0000
0000
,  // measure 122
0000
0000
0000
0000
,  // measure 123
0000
0000
0000
0000
,  // measure 124
0000
0000
0000
0000
,  // measure 125
0000
0000
0000
0000
,  // measure 126
0000
0000
0000
0000
,  // measure 127
0000
0000
0000
0000
,  // measure 128
0000
0000
0000
0000
,  // measure 129
1000
0000
0000
0000
,  // measure 130
0000
0000
0000
0000
,  // measure 131
0000
0000
0000
0000
0000
0000
0000
0000
0001
0000
0000
0000
,  // measure 132
0000
0000
0000
0000
,  // measure 133
0000
0000
0000
0000
,  // measure 134
0000
0000
0000
0000
0100
0000
0000
0000
0000
0000
0000
0000
,  // measure 135
0000
0000
0000
0000
,  // measure 136
0000
0000
0000
0000
,  // measure 137
0001
0000
0000
0000
,  // measure 138
0000
0000
0000
0000
,  // measure 139
0000
0000
0000
0000
0000
0000
0000
0000
0010
0000
0000
0000
,  // measure 140
0000
0000
0000
0000
,  // measure 141
0000
0000
0000
0000
,  // measure 142
0000
0000
0000
0000
1000
0000
0000
0000
0000
0000
0000
0000
,  // measure 143
0000
0000
0000
0000
,  // measure 144
0000
0000
0000
0000
,  // measure 145
0001
0000
0000
0000
,  // measure 146
0000
0000
0000
0000
,  // measure 147
0000
0000
0000
0000
0000
0000
0000
0000
0100
0000
0000
0000
,  // measure 148
0000
0000
0000
0000
,  // measure 149
0000
0000
0000
0000
,  // measure 150
0000
0000
0000
0000
0010
0000
0000
0000
0000
0000
0000
0000
,  // measure 151
0000
0000
0000
0000
,  // measure 152
0000
0000
0000
0000
,  // measure 153
0001
0000
0000
0000
,  // measure 154
0000
0000
0000
0000
,  // measure 155
0000
0000
0000
0000
0000
0000
0000
0000
0010
0000
0000
0000
,  // measure 156
0000
0000
0000
0000
,  // measure 157
0000
0000
0000
0000
,  // measure 158
0000
0000
0000
0000
0100
0000
0000
0000
0000
0000
0000
0000
,  // measure 159
0000
0000
0000
0000
,  // measure 160
0000
0000
0000
0000
,  // measure 161
0001
0000
0000
0000
,  // measure 162
0000
0000
0000
0000
,  // measure 163
0000
0000
0000
0000
0000
0000
0000
0000
0010
0000
0000
0000
,  // measure 164
0000
0000
0000
0000
,  // measure 165
0000
0000
0000
0000
,  // measure 166
0000
0000
0000
0000
0100
0000
0000
0000
0000
0000
0000
0000
,  // measure 167
0000
0000
0000
0000
,  // measure 168
0000
0000
0000
0000
,  // measure 169
0010
0000
0000
0000
,  // measure 170
0000
0000
0000
0000
,  // measure 171
0000
0000
0000
0000
0000
0000
0000
0000
0100
0000
0000
0000
,  // measure 172
0000
0000
0000
0000
,  // measure 173
0000
0000
0000
0000
,  // measure 174
0000
0000
0000
0000
1000
0000
0000
0000
0000
0000
0000
0000
,  // measure 175
0000
0000
0000
0000
,  // measure 176
0000
0000
0000
0000
,  // measure 177
0001
0000
0000
0000
,  // measure 178
0000
0000
0000
0000
,  // measure 179
0000
0000
0000
0000
0000
0000
0000
0000
1000
0000
0000
0000
,  // measure 180
0000
0000
0000
0000
,  // measure 181
0000
0000
0000
0000
,  // measure 182
0000
0000
0000
0000
0010
0000
0000
0000
0000
0000
0000
0000
,  // measure 183
0000
0000
0000
0000
,  // measure 184
0000
0000
0000
0000
,  // measure 185
1000
0000
0000
0000
,  // measure 186
0000
0000
0000
0000
,  // measure 187
0000
0000
0000
0000
0000
0000
0000
0000
0001
0000
0000
0000
,  // measure 188
0000
0000
0000
0000
,  // measure 189
0000
0000
0000
0000
,  // measure 190
0000
0000
0000
0000
0100
0000
0000
0000
0000
0000
0000
0000
,  // measure 191
0000
0000
0000
0000
,  // measure 192
0000
0000
0000
0000
,  // measure 193
2000
0000
0000
0000
,  // measure 194
0000
0000
0000
0000
,  // measure 195
0000
0000
0000
0000
,  // measure 196
0000
0000
0000
0000
,  // measure 197
0000
0000
0000
0000
,  // measure 198
0000
0000
0000
0000
,  // measure 199
0000
0000
0000
0000
,  // measure 200
0000
0000
0000
0000
,  // measure 201
0000
0000
0000
0000
,  // measure 202
0000
0000
0000
0000
,  // measure 203
0000
0000
0000
0000
0000
0000
0000
0000
0001
0000
0000
0000
,  // measure 204
0000
0000
0000
0000
,  // measure 205
0000
0000
0000
0000
,  // measure 206
0000
0000
0000
0000
0100
0000
0000
0000
0000
0000
0000
0000
,  // measure 207
0000
0000
0000
0000
,  // measure 208
0000
0000
0000
0000
,  // measure 209
0010
0000
0000
0000
,  // measure 210
0000
0000
0000
0000
,  // measure 211
0000
0000
0000
0000
0000
0000
0000
0000
0100
0000
0000
0000
,  // measure 212
0000
0000
0000
0000
,  // measure 213
0000
0000
0000
0000
,  // measure 214
0000
0000
0000
0000
3000
0000
0000
0000
0000
0000
0000
0000
,  // measure 215
0000
0000
0000
0000
,  // measure 216
0000
0000
0000
0000
,  // measure 217
0001
0000
0000
0000
,  // measure 218
0000
0000
0000
0000
,  // measure 219
0000
0000
0000
0000
0000
0000
0000
0000
0010
0000
0000
0000
,  // measure 220
0000
0000
0000
0000
,  // measure 221
0000
0000
0000
0000
,  // measure 222
0000
0000
0000
0000
0100
0000
0000
0000
0000
0000
0000
0000
,  // measure 223
0000
0000
0000
0000
,  // measure 224
0000
0000
0000
0000
,  // measure 225
0010
0000
0000
0000
,  // measure 226
0000
0000
0000
0000
,  // measure 227
0000
0000
0000
0000
0000
0000
0000
0000
1000
0000
0000
0000
,  // measure 228
0000
0000
0000
0000
,  // measure 229
0000
0000
0000
0000
,  // measure 230
0000
0000
0000
0000
0001
0000
0000
0000
0000
0000
0000
0000
,  // measure 231
0000
0000
0000
0000
,  // measure 232
0000
0000
0000
0000
,  // measure 233
1000
0000
0000
0000
,  // measure 234
0000
0000
0000
0000
,  // measure 235
0000
0000
0000
0000
0000
0000
0000
0000
0010
0000
0000
0000
,  // measure 236
0000
0000
0000
0000
,  // measure 237
0000
0000
0000
0000
,  // measure 238
0000
0000
0000
0000
0100
0000
0000
0000
0000
0000
0000
0000
,  // measure 239
0000
0000
0000
0000
,  // measure 240
0000
0000
0000
0000
,  // measure 241
0010
0000
0000
0000
,  // measure 242
0000
0000
0000
0000
,  // measure 243
0000
0000
0000
0000
0000
0000
0000
0000
1000
0000
0000
0000
,  // measure 244
0000
0000
0000
0000
,  // measure 245
0000
0000
0000
0000
,  // measure 246
0000
0000
0000
0000
0001
0000
0000
0000
0000
0000
0000
0000
,  // measure 247
0000
0000
0000
0000
,  // measure 248
0000
0000
0000
0000
,  // measure 249
0020
0000
0000
0000
,  // measure 250
0000
0000
0000
0000
,  // measure 251
0000
0000
0000
0000
,  // measure 252
0000
0000
0000
0000
,  // measure 253
0000
0000
0000
0000
,  // measure 254
0000
0000
0000
0000
,  // measure 255
0000
0000
0000
0000
,  // measure 256
0000
0000
0000
0000
,  // measure 257
1000
0000
0000
0000
,  // measure 258
0000
0000
0000
0000
,  // measure 259
0000
0000
0000
0000
0000
0000
0000
0000
0001
0000
0000
0000
,  // measure 260
0000
0000
0000
0000
,  // measure 261
0000
0000
0000
0000
,  // measure 262
0000
0000
0000
0000
0100
0000
0000
0000
0000
0000
0000
0000
,  // measure 263
0000
0000
0000
0000
,  // measure 264
0000
0000
0000
0000
,  // measure 265
0030
0000
0000
0000
,  // measure 266
0000
0000
0000
0000
,  // measure 267
0000
0000
0000
0000
0000
0000
0000
0000
0100
0000
0000
0000
,  // measure 268
0000
0000
0000
0000
,  // measure 269
0000
0000
0000
0000
,  // measure 270
0000
0000
0000
0000
1000
0000
0000
0000
0000
0000
0000
0000
,  // measure 271
0000
0000
0000
0000
,  // measure 272
0000
0000
0000
0000
,  // measure 273
0100
0000
0000
0000
,  // measure 274
0000
0000
0000
0000
,  // measure 275
0000
0000
0000
0000
0000
0000
0000
0000
0001
0000
0000
0000
,  // measure 276
0000
0000
0000
0000
,  // measure 277
0000
0000
0000
0000
,  // measure 278
0000
0000
0000
0000
0010
0000
0000
0000
0000
0000
0000
0000
,  // measure 279
0000
0000
0000
0000
,  // measure 280
0000
0000
0000
0000
,  // measure 281
1000
0000
0000
0000
,  // measure 282
0000
0000
0000
0000
,  // measure 283
0000
0000
0000
0000
0000
0000
0000
0000
0100
0000
0000
0000
,  // measure 284
0000
0000
0000
0000
,  // measure 285
0000
0000
0000
0000
,  // measure 286
0000
0000
0000
0000
0001
0000
0000
0000
0000
0000
0000
0000
,  // measure 287
0000
0000
0000
0000
,  // measure 288
0000
0000
0000
0000
,  // measure 289
0100
0000
0000
0000
,  // measure 290
0000
0000
0000
0000
,  // measure 291
0000
0000
0000
0000
0000
0000
0000
0000
1000
0000
0000
0000
,  // measure 292
0000
0000
0000
0000
,  // measure 293
0000
0000
0000
0000
,  // measure 294
0000
0000
0000
0000
0100
0000
0000
0000
0000
0000
0000
0000
,  // measure 295
0000
0000
0000
0000
,  // measure 296
0000
0000
0000
0000
,  // measure 297
1000
0000
0000
0000
,  // measure 298
0000
0000
0000
0000
,  // measure 299
0000
0000
0000
0000
0000
0000
0000
0000
0010
0000
0000
0000
,  // measure 300
0000
0000
0000
0000
,  // measure 301
0000
0000
0000
0000
,  // measure 302
0000
0000
0000
0000
0001
0000
0000
0000
0000
0000
0000
0000
,  // measure 303
0000
0000
0000
0000
,  // measure 304
0000
0000
0000
0000
,  // measure 305
0100
0000
0000
0000
,  // measure 306
0000
0000
0000
0000
,  // measure 307
0000
0000
0000
0000
0000
0000
0000
0000
1000
0000
0000
0000
,  // measure 308
0000
0000
0000
0000
,  // measure 309
0000
0000
0000
0000
,  // measure 310
0000
0000
0000
0000
0010
0000
0000
0000
0000
0000
0000
0000
,  // measure 311
0000
0000
0000
0000
,  // measure 312
0000
0000
0000
0000
,  // measure 313
1000
0000
0000
0000
,  // measure 314
0000
0000
0000
0000
,  // measure 315
0000
0000
0000
0000
0000
0000
0000
0000
0010
0000
0000
0000
,  // measure 316
0000
0000
0000
0000
,  // measure 317
0000
0000
0000
0000
,  // measure 318
0000
0000
0000
0000
0100
0000
0000
0000
0000
0000
0000
0000
,  // measure 319
0000
0000
0000
0000
,  // measure 320
0000
0000
0000
0000
,  // measure 321
0010
0000
0000
0000
,  // measure 322
0000
0000
0000
0000
,  // measure 323
0000
0000
0000
0000
0000
0000
0000
0000
0100
0000
0000
0000
,  // measure 324
0000
0000
0000
0000
,  // measure 325
0000
0000
0000
0000
,  // measure 326
0000
0000
0000
0000
0001
0000
0000
0000
0000
0000
0000
0000
,  // measure 327
0000
0000
0000
0000
,  // measure 328
0000
0000
0000
0000
,  // measure 329
0010
0000
0000
0000
,  // measure 330
0000
0000
0000
0000
,  // measure 331
0000
0000
0000
0000
0000
0000
0000
0000
1000
0000
0000
0000
,  // measure 332
0000
0000
0000
0000
,  // measure 333
0000
0000
0000
0000
,  // measure 334
0000
0000
0000
0000
0100
0000
0000
0000
0000
0000
0000
0000
,  // measure 335
0000
0000
0000
0000
,  // measure 336
0000
0000
0000
0000
,  // measure 337
1000
0000
0000
0000
,  // measure 338
0000
0000
0000
0000
,  // measure 339
0000
0000
0000
0000
0000
0000
0000
0000
0001
0000
0000
0000
,  // measure 340
0000
0000
0000
0000
,  // measure 341
0000
0000
0000
0000
,  // measure 342
0000
0000
0000
0000
1000
0000
0000
0000
0000
0000
0000
0000
,  // measure 343
0000
0000
0000
0000
,  // measure 344
0000
0000
0000
0000
,  // measure 345
0010
0000
0000
0000
,  // measure 346
0000
0000
0000
0000
,  // measure 347
0000
0000
0000
0000
0000
0000
0000
0000
1000
0000
0000
0000
,  // measure 348
0000
0000
0000
0000
,  // measure 349
0000
0000
0000
0000
,  // measure 350
0000
0000
0000
0000
0100
0000
0000
0000
0000
0000
0000
0000
,  // measure 351
0000
0000
0000
0000
,  // measure 352
0000
0000
0000
0000
,  // measure 353
0001
0000
0000
0000
,  // measure 354
0000
0000
0000
0000
,  // measure 355
0000
0000
0000
0000
0000
0000
0000
0000
1000
0000
0000
0000
,  // measure 356
0000
0000
0000
0000
,  // measure 357
0000
0000
0000
0000
,  // measure 358
0000
0000
0000
0000
0001
0000
0000
0000
0000
0000
0000
0000
,  // measure 359
0000
0000
0000
0000
,  // measure 360
0000
0000
0000
0000
,  // measure 361
0010
0000
0000
0000
,  // measure 362
0000
0000
0000
0000
,  // measure 363
0000
0000
0000
0000
0000
0000
0000
0000
1000
0000
0000
0000
,  // measure 364
0000
0000
0000
0000
,  // measure 365
0000
0000
0000
0000
,  // measure 366
0000
0000
0000
0000
0100
0000
0000
0000
0000
0000
0000
0000
,  // measure 367
0000
0000
0000
0000
,  // measure 368
0000
0000
0000
0000
,  // measure 369
0010
0000
0000
0000
,  // measure 370
0000
0000
0000
0000
,  // measure 371
0000
0000
0000
0000
0000
0000
0000
0000
1000
0000
0000
0000
,  // measure 372
0000
0000
0000
0000
,  // measure 373
0000
0000
0000
0000
,  // measure 374
0000
0000
0000
0000
0001
0000
0000
0000
0000
0000
0000
0000
,  // measure 375
0000
0000
0000
0000
,  // measure 376
0000
0000
0000
0000
,  // measure 377
2000
0000
0000
0000
,  // measure 378
0000
0000
0000
0000
,  // measure 379
0000
0000
0000
0000
,  // measure 380
0000
0000
0000
0000
,  // measure 381
0000
0000
0000
0000
,  // measure 382
0000
0000
0000
0000
,  // measure 383
0000
0000
0000
0000
,  // measure 384
0000
0000
0000
0000
,  // measure 385
0010
0000
0000
0000
,  // measure 386
0000
0000
0000
0000
,  // measure 387
0000
0000
0000
0000
0000
0000
0000
0000
3000
0000
0000
0000
,  // measure 388
0000
0000
0000
0000
,  // measure 389
0000
0000
0000
0000
,  // measure 390
0000
0000
0000
0000
0010
0000
0000
0000
0000
0000
0000
0000
,  // measure 391
0000
0000
0000
0000
,  // measure 392
0000
0000
0000
0000
,  // measure 393
1000
0000
0000
0000
,  // measure 394
0000
0000
0000
0000
,  // measure 395
0000
0000
0000
0000
0000
0000
0000
0000
0010
0000
0000
0000
,  // measure 396
0000
0000
0000
0000
,  // measure 397
0000
0000
0000
0000
,  // measure 398
0000
0000
0000
0000
0100
0000
0000
0000
0000
0000
0000
0000
,  // measure 399
0000
0000
0000
0000
,  // measure 400
0000
0000
0000
0000
,  // measure 401
0001
0000
0000
0000
,  // measure 402
0000
0000
0000
0000
,  // measure 403
0000
0000
0000
0000
0000
0000
0000
0000
1000
0000
0000
0000
,  // measure 404
0000
0000
0000
0000
,  // measure 405
0000
0000
0000
0000
,  // measure 406
0000
0000
0000
0000
0100
0000
0000
0000
0000
0000
0000
0000
,  // measure 407
0000
0000
0000
0000
,  // measure 408
0000
0000
0000
0000
,  // measure 409
0010
0000
0000
0000
,  // measure 410
0000
0000
0000
0000
,  // measure 411
0000
0000
0000
0000
0000
0000
0000
0000
1000
0000
0000
0000
,  // measure 412
0000
0000
0000
0000
,  // measure 413
0000
0000
0000
0000
,  // measure 414
0000
0000
0000
0000
0100
0000
0000
0000
0000
0000
0000
0000
,  // measure 415
0000
0000
0000
0000
,  // measure 416
0000
0000
0000
0000
,  // measure 417
1000
0000
0000
0000
,  // measure 418
0000
0000
0000
0000
,  // measure 419
0100
0000
0000
0000
,  // measure 420
0000
0000
0000
0000
,  // measure 421
1000
0000
0000
0000
,  // measure 422
0000
0000
0000
0000
,  // measure 423
0100
0000
0000
0000
,  // measure 424
0000
0000
0000
0000
,  // measure 425
0010
0000
0000
0000
,  // measure 426
0000
0000
0000
0000
,  // measure 427
0000
0000
0000
0000
,  // measure 428
0000
0000
0000
0000
,  // measure 429
0000
0000
0000
0000
,  // measure 430
0000
0000
0000
0000
0010
0000
0000
0000
0000
0000
0000
0000
,  // measure 431
0000
0000
0000
0000
,  // measure 432
0000
0000
0000
0000
,  // measure 433
0001
0000
0000
0000
,  // measure 434
0000
0000
0000
0000
,  // measure 435
0000
0000
0000
0000
,  // measure 436
0000
0000
0000
0000
,  // measure 437
0000
0000
0000
0000
,  // measure 438
0000
0000
0000
0000
0100
0000
0000
0000
0000
0000
0000
0000
,  // measure 439
0000
0000
0000
0000
,  // measure 440
0000
0000
0000
0000
,  // measure 441
0010
0000
0000
0000
,  // measure 442
0000
0000
0000
0000
,  // measure 443
0000
0000
0000
0000
,  // measure 444
0000
0000
0000
0000
,  // measure 445
0000
0000
0000
0000
,  // measure 446
0000
0000
0000
0000
1000
0000
0000
0000
0000
0000
0000
0000
,  // measure 447
0000
0000
0000
0000
,  // measure 448
0000
0000
0000
0000
,  // measure 449
0100
0000
0000
0000
,  // measure 450
0000
0000
0000
0000
,  // measure 451
0000
0000
0000
0000
0000
0000
0000
0000
0010
0000
0000
0000
,  // measure 452
0000
0000
0000
0000
,  // measure 453
0000
0000
0000
0000
,  // measure 454
0000
0000
0000
0000
0100
0000
0000
0000
0000
0000
0000
0000
,  // measure 455
0000
0000
0000
0000
,  // measure 456
0000
0000
0000
0000
,  // measure 457
1000
0000
0000
0000
,  // measure 458
0000
0000
0000
0000
,  // measure 459
0000
0000
0000
0000
0000
0000
0000
0000
0010
0000
0000
0000
,  // measure 460
0000
0000
0000
0000
,  // measure 461
0000
0000
0000
0000
,  // measure 462
0000
0000
0000
0000
0100
0000
0000
0000
0000
0000
0000
0000
,  // measure 463
0000
0000
0000
0000
,  // measure 464
0000
0000
0000
0000
,  // measure 465
0010
0000
0000
0000
,  // measure 466
0000
0000
0000
0000
,  // measure 467
0000
0000
0000
0000
0000
0000
0000
0000
0100
0000
0000
0000
,  // measure 468
0000
0000
0000
0000
,  // measure 469
0000
0000
0000
0000
,  // measure 470
0000
0000
0000
0000
0001
0000
0000
0000
0000
0000
0000
0000
,  // measure 471
0000
0000
0000
0000
,  // measure 472
0000
0000
0000
0000
,  // measure 473
1000
0000
0000
0000
,  // measure 474
0000
0000
0000
0000
,  // measure 475
0000
0000
0000
0000
0000
0000
0000
0000
0010
0000
0000
0000
,  // measure 476
0000
0000
0000
0000
,  // measure 477
0000
0000
0000
0000
,  // measure 478
0000
0000
0000
0000
0100
0000
0000
0000
0000
0000
0000
0000
,  // measure 479
0000
0000
0000
0000
,  // measure 480
0000
0000
0000
0000
,  // measure 481
0010
0000
0000
0000
,  // measure 482
0000
0000
0000
0000
,  // measure 483
0000
0000
0000
0000
0000
0000
0000
0000
0100
0000
0000
0000
,  // measure 484
0000
0000
0000
0000
,  // measure 485
0000
0000
0000
0000
,  // measure 486
0000
0000
0000
0000
0001
0000
0000
0000
0000
0000
0000
0000
,  // measure 487
0000
0000
0000
0000
,  // measure 488
0000
0000
0000
0000
,  // measure 489
1000
0000
0000
0000
,  // measure 490
0000
0000
0000
0000
,  // measure 491
0000
0000
0000
0000
0000
0000
0000
0000
0010
0000
0000
0000
,  // measure 492
0000
0000
0000
0000
,  // measure 493
0000
0000
0000
0000
,  // measure 494
0000
0000
0000
0000
0001
0000
0000
0000
0000
0000
0000
0000
,  // measure 495
0000
0000
0000
0000
,  // measure 496
0000
0000
0000
0000
,  // measure 497
0100
0000
0000
0000
,  // measure 498
0000
0000
0000
0000
,  // measure 499
0000
0000
0000
0000
0000
0000
0000
0000
0010
0000
0000
0000
,  // measure 500
0000
0000
0000
0000
,  // measure 501
0000
0000
0000
0000
,  // measure 502
0000
0000
0000
0000
1000
0000
0000
0000
0000
0000
0000
0000
,  // measure 503
0000
0000
0000
0000
,  // measure 504
0000
0000
0000
0000
,  // measure 505
0002
0000
0000
0000
,  // measure 506
0000
0000
0000
0000
,  // measure 507
0000
0000
0000
0000
,  // measure 508
0000
0000
0000
0000
,  // measure 509
0000
0000
0000
0000
,  // measure 510
0000
0000
0000
0000
0003
0000
0000
0000
0000
0000
0000
0000
,  // measure 511
0000
0000
0000
0000
,  // measure 512
0000
0000
0000
0000
,  // measure 513
0100
0000
0000
0000
,  // measure 514
0000
0000
0000
0000
,  // measure 515
0000
0000
0000
0000
0000
0000
0000
0000
0010
0000
0000
0000
,  // measure 516
0000
0000
0000
0000
,  // measure 517
0000
0000
0000
0000
,  // measure 518
0000
0000
0000
0000
1000
0000
0000
0000
0000
0000
0000
0000
,  // measure 519
0000
0000
0000
0000
,  // measure 520
0000
0000
0000
0000
,  // measure 521
0002
0000
0000
0000
,  // measure 522
0000
0000
0000
0000
,  // measure 523
0000
0000
0000
0000
,  // measure 524
0000
0000
0000
0000
,  // measure 525
0000
0000
0000
0000
,  // measure 526
0000
0000
0000
0000
0003
0000
0000
0000
0000
0000
0000
0000
,  // measure 527
0000
0000
0000
0000
,  // measure 528
0000
0000
0000
0000
,  // measure 529
0100
0000
0000
0000
,  // measure 530
0000
0000
0000
0000
,  // measure 531
0000
0000
0000
0000
0000
0000
0000
0000
0010
0000
0000
0000
,  // measure 532
0000
0000
0000
0000
,  // measure 533
0000
0000
0000
0000
,  // measure 534
0000
0000
0000
0000
0001
0000
0000
0000
0000
0000
0000
0000
,  // measure 535
0000
0000
0000
0000
,  // measure 536
0000
0000
0000
0000
,  // measure 537
0100
0000
0000
0000
,  // measure 538
0000
0000
0000
0000
,  // measure 539
0000
0000
0000
0000
0000
0000
0000
0000
0010
0000
0000
0000
,  // measure 540
0000
0000
0000
0000
,  // measure 541
0000
0000
0000
0000
,  // measure 542
0000
0000
0000
0000
0001
0000
0000
0000
0000
0000
0000
0000
,  // measure 543
0000
0000
0000
0000
,  // measure 544
0000
0000
0000
0000
,  // measure 545
0100
0000
0000
0000
,  // measure 546
0000
0000
0000
0000
,  // measure 547
0000
0000
0000
0000
0000
0000
0000
0000
0010
0000
0000
0000
,  // measure 548
0000
0000
0000
0000
,  // measure 549
0000
0000
0000
0000
,  // measure 550
0000
0000
0000
0000
0001
0000
0000
0000
0000
0000
0000
0000
,  // measure 551
0000
0000
0000
0000
,  // measure 552
0000
0000
0000
0000
,  // measure 553
0100
0000
0000
0000
,  // measure 554
0000
0000
0000
0000
,  // measure 555
0000
0000
0000
0000
0000
0000
0000
0000
0010
0000
0000
0000
,  // measure 556
0000
0000
0000
0000
,  // measure 557
0000
0000
0000
0000
,  // measure 558
0000
0000
0000
0000
0001
0000
0000
0000
0000
0000
0000
0000
,  // measure 559
0000
0000
0000
0000
,  // measure 560
0000
0000
0000
0000
,  // measure 561
1000
0000
0000
0000
,  // measure 562
0000
0000
0000
0000
,  // measure 563
0000
0000
0000
0000
0000
0000
0000
0000
0010
0000
0000
0000
,  // measure 564
0000
0000
0000
0000
,  // measure 565
0000
0000
0000
0000
,  // measure 566
0000
0000
0000
0000
1000
0000
0000
0000
0000
0000
0000
0000
,  // measure 567
0000
0000
0000
0000
,  // measure 568
0000
0000
0000
0000
,  // measure 569
0002
0000
0000
0000
,  // measure 570
0000
0000
0000
0000
,  // measure 571
0000
0000
0000
0000
,  // measure 572
0000
0000
0000
0000
,  // measure 573
0000
0000
0000
0000
,  // measure 574
0000
0000
0000
0000
0003
0000
0000
0000
0000
0000
0000
0000
,  // measure 575
0000
0000
0000
0000
,  // measure 576
0000
0000
0000
0000
,  // measure 577
1000
0000
0000
0000
,  // measure 578
0000
0000
0000
0000
,  // measure 579
0000
0000
0000
0000
0000
0000
0000
0000
0001
0000
0000
0000
,  // measure 580
0000
0000
0000
0000
,  // measure 581
0000
0000
0000
0000
,  // measure 582
0000
0000
0000
0000
0100
0000
0000
0000
0000
0000
0000
0000
,  // measure 583
0000
0000
0000
0000
,  // measure 584
0000
0000
0000
0000
,  // measure 585
0001
0000
0000
0000
,  // measure 586
0000
0000
0000
0000
,  // measure 587
0000
0000
0000
0000
0000
0000
0000
0000
0010
0000
0000
0000
,  // measure 588
0000
0000
0000
0000
,  // measure 589
0000
0000
0000
0000
,  // measure 590
0000
0000
0000
0000
1000
0000
0000
0000
0000
0000
0000
0000
,  // measure 591
0000
0000
0000
0000
,  // measure 592
0000
0000
0000
0000
,  // measure 593
0001
0000
0000
0000
,  // measure 594
0000
0000
0000
0000
,  // measure 595
0000
0000
0000
0000
0000
0000
0000
0000
0100
0000
0000
0000
,  // measure 596
0000
0000
0000
0000
,  // measure 597
0000
0000
0000
0000
,  // measure 598
0000
0000
0000
0000
0010
0000
0000
0000
0000
0000
0000
0000
,  // measure 599
0000
0000
0000
0000
,  // measure 600
0000
0000
0000
0000
,  // measure 601
0001
0000
0000
0000
,  // measure 602
0000
0000
0000
0000
,  // measure 603
0000
0000
0000
0000
0000
0000
0000
0000
0010
0000
0000
0000
,  // measure 604
0000
0000
0000
0000
,  // measure 605
0000
0000
0000
0000
,  // measure 606
0000
0000
0000
0000
0100
0000
0000
0000
0000
0000
0000
0000
,  // measure 607
0000
0000
0000
0000
,  // measure 608
0000
0000
0000
0000
,  // measure 609
0001
0000
0000
0000
,  // measure 610
0000
0000
0000
0000
,  // measure 611
0000
0000
0000
0000
0000
0000
0000
0000
0010
0000
0000
0000
,  // measure 612
0000
0000
0000
0000
,  // measure 613
0000
0000
0000
0000
,  // measure 614
0000
0000
0000
0000
0100
0000
0000
0000
0000
0000
0000
0000
,  // measure 615
0000
0000
0000
0000
,  // measure 616
0000
0000
0000
0000
,  // measure 617
0010
0000
0000
0000
,  // measure 618
0000
0000
0000
0000
,  // measure 619
0000
0000
0000
0000
0000
0000
0000
0000
0100
0000
0000
0000
,  // measure 620
0000
0000
0000
0000
,  // measure 621
0000
0000
0000
0000
,  // measure 622
0000
0000
0000
0000
1000
0000
0000
0000
0000
0000
0000
0000
,  // measure 623
0000
0000
0000
0000
,  // measure 624
0000
0000
0000
0000
,  // measure 625
0001
0000
0000
0000
,  // measure 626
0000
0000
0000
0000
,  // measure 627
0000
0000
0000
0000
0000
0000
0000
0000
1000
0000
0000
0000
,  // measure 628
0000
0000
0000
0000
,  // measure 629
0000
0000
0000
0000
,  // measure 630
0000
0000
0000
0000
0010
0000
0000
0000
0000
0000
0000
0000
,  // measure 631
0000
0000
0000
0000
,  // measure 632
0000
0000
0000
0000
,  // measure 633
1000
0000
0000
0000
,  // measure 634
0000
0000
0000
0000
,  // measure 635
0000
0000
0000
0000
0000
0000
0000
0000
0010
0000
0000
0000
,  // measure 636
0000
0000
0000
0000
,  // measure 637
0000
0000
0000
0000
,  // measure 638
0000
0000
0000
0000
0100
0000
0000
0000
0000
0000
0000
0000
,  // measure 639
0000
0000
0000
0000
,  // measure 640
0000
0000
0000
0000
,  // measure 641
2000
0000
0000
0000
,  // measure 642
0000
0000
0000
0000
,  // measure 643
0000
0000
0000
0000
,  // measure 644
0000
0000
0000
0000
,  // measure 645
0000
0000
0000
0000
,  // measure 646
0000
0000
0000
0000
,  // measure 647
0000
0000
0000
0000
,  // measure 648
0000
0000
0000
0000
,  // measure 649
0000
0000
0000
0000
,  // measure 650
0000
0000
0000
0000
,  // measure 651
0000
0000
0000
0000
0000
0000
0000
0000
0001
0000
0000
0000
,  // measure 652
0000
0000
0000
0000
,  // measure 653
0000
0000
0000
0000
,  // measure 654
0000
0000
0000
0000
0100
0000
0000
0000
0000
0000
0000
0000
,  // measure 655
0000
0000
0000
0000
,  // measure 656
0000
0000
0000
0000
,  // measure 657
0010
0000
0000
0000
,  // measure 658
0000
0000
0000
0000
,  // measure 659
0000
0000
0000
0000
0000
0000
0000
0000
0100
0000
0000
0000
,  // measure 660
0000
0000
0000
0000
,  // measure 661
0000
0000
0000
0000
,  // measure 662
0000
0000
0000
0000
3000
0000
0000
0000
0000
0000
0000
0000
,  // measure 663
0000
0000
0000
0000
,  // measure 664
0000
0000
0000
0000
,  // measure 665
0001
0000
0000
0000
,  // measure 666
0000
0000
0000
0000
,  // measure 667
0000
0000
0000
0000
0000
0000
0000
0000
1000
0000
0000
0000
,  // measure 668
0000
0000
0000
0000
,  // measure 669
0000
0000
0000
0000
,  // measure 670
0000
0000
0000
0000
0100
0000
0000
0000
0000
0000
0000
0000
,  // measure 671
0000
0000
0000
0000
,  // measure 672
0000
0000
0000
0000
,  // measure 673
0010
0000
0000
0000
,  // measure 674
0000
0000
0000
0000
,  // measure 675
0000
0000
0000
0000
0000
0000
0000
0000
0100
0000
0000
0000
,  // measure 676
0000
0000
0000
0000
,  // measure 677
0000
0000
0000
0000
,  // measure 678
0000
0000
0000
0000
0001
0000
0000
0000
0000
0000
0000
0000
,  // measure 679
0000
0000
0000
0000
,  // measure 680
0000
0000
0000
0000
,  // measure 681
1000
0000
0000
0000
,  // measure 682
0000
0000
0000
0000
,  // measure 683
0000
0000
0000
0000
0000
0000
0000
0000
0010
0000
0000
0000
,  // measure 684
0000
0000
0000
0000
,  // measure 685
0000
0000
0000
0000
,  // measure 686
0000
0000
0000
0000
0100
0000
0000
0000
0000
0000
0000
0000
,  // measure 687
0000
0000
0000
0000
,  // measure 688
0000
0000
0000
0000
,  // measure 689
0010
0000
0000
0000
,  // measure 690
0000
0000
0000
0000
,  // measure 691
0000
0000
0000
0000
0000
0000
0000
0000
1000
0000
0000
0000
,  // measure 692
0000
0000
0000
0000
,  // measure 693
0000
0000
0000
0000
,  // measure 694
0000
0000
0000
0000
0001
0000
0000
0000
0000
0000
0000
0000
,  // measure 695
0000
0000
0000
0000
,  // measure 696
0000
0000
0000
0000
,  // measure 697
0020
0000
0000
0000
,  // measure 698
0000
0000
0000
0000
,  // measure 699
0000
0000
0000
0000
,  // measure 700
0000
0000
0000
0000
,  // measure 701
0000
0000
0000
0000
,  // measure 702
0000
0000
0000
0000
0100
0000
0000
0000
0000
0000
0000
0000
,  // measure 703
0000
0000
0000
0000
,  // measure 704
0000
0000
0000
0000
,  // measure 705
1000
0000
0000
0000
,  // measure 706
0000
0000
0000
0000
,  // measure 707
0000
0000
0000
0000
0000
0000
0000
0000
0001
0000
0000
0000
,  // measure 708
0000
0000
0000
0000
,  // measure 709
0000
0000
0000
0000
,  // measure 710
0000
0000
0000
0000
0030
0000
0000
0000
0000
0000
0000
0000
,  // measure 711
0000
0000
0000
0000
,  // measure 712
0000
0000
0000
0000
,  // measure 713
0001
0000
0000
0000
,  // measure 714
0000
0000
0000
0000
,  // measure 715
0000
0000
0000
0000
,  // measure 716
0000
0000
0000
0000
,  // measure 717
0000
0000
0000
0000
,  // measure 718
0000
0000
0000
0000
0100
0000
0000
0000
0000
0000
0000
0000
,  // measure 719
0000
0000
0000
0000
,  // measure 720
0000
0000
0000
0000
,  // measure 721
0010
0000
0000
0000
,  // measure 722
0000
0000
0000
0000
,  // measure 723
0000
0000
0000
0000
,  // measure 724
0000
0000
0000
0000
,  // measure 725
0000
0000
0000
0000
,  // measure 726
0000
0000
0000
0000
1000
0000
0000
0000
0000
0000
0000
0000
,  // measure 727
0000
0000
0000
0000
,  // measure 728
0000
0000
0000
0000
,  // measure 729
0001
0000
0000
0000
,  // measure 730
0000
0000
0000
0000
,  // measure 731
0000
0000
0000
0000
,  // measure 732
0000
0000
0000
0000
,  // measure 733
0000
0000
0000
0000
,  // measure 734
0000
0000
0000
0000
0100
0000
0000
0000
0000
0000
0000
0000
,  // measure 735
0000
0000
0000
0000
,  // measure 736
0000
0000
0000
0000
,  // measure 737
0001
0000
0000
0000
,  // measure 738
0000
0000
0000
0000
,  // measure 739
0000
0000
0000
0000
0000
0000
0000
0000
0100
0000
0000
0000
,  // measure 740
0000
0000
0000
0000
,  // measure 741
0000
0000
0000
0000
,  // measure 742
0000
0000
0000
0000
0001
0000
0000
0000
0000
0000
0000
0000
,  // measure 743
0000
0000
0000
0000
,  // measure 744
0000
0000
0000
0000
,  // measure 745
0010
0000
0000
0000
,  // measure 746
0000
0000
0000
0000
,  // measure 747
0000
0000
0000
0000
0000
0000
0000
0000
0001
0000
0000
0000
,  // measure 748
0000
0000
0000
0000
,  // measure 749
0000
0000
0000
0000
,  // measure 750
0000
0000
0000
0000
0100
0000
0000
0000
0000
0000
0000
0000
,  // measure 751
0000
0000
0000
0000
,  // measure 752
0000
0000
0000
0000
,  // measure 753
1000
0000
0000
0000
,  // measure 754
0000
0000
0000
0000
,  // measure 755
0000
0000
0000
0000
0000
0000
0000
0000
0001
0000
0000
0000
,  // measure 756
0000
0000
0000
0000
,  // measure 757
0000
0000
0000
0000
,  // measure 758
0000
0000
0000
0000
0100
0000
0000
0000
0000
0000
0000
0000
,  // measure 759
0000
0000
0000
0000
,  // measure 760
0000
0000
0000
0000
,  // measure 761
0010
0000
0000
0000
,  // measure 762
0000
0000
0000
0000
,  // measure 763
0000
0000
0000
0000
0000
0000
0000
0000
0100
0000
0000
0000
,  // measure 764
0000
0000
0000
0000
,  // measure 765
0000
0000
0000
0000
,  // measure 766
0000
0000
0000
0000
0010
0000
0000
0000
0000
0000
0000
0000
,  // measure 767
0000
0000
0000
0000
,  // measure 768
0000
0000
0000
0000
,  // measure 769
1000
0000
0000
0000
,  // measure 770
0000
0000
0000
0000
,  // measure 771
0000
0000
0000
0000
0000
0000
0000
0000
0010
0000
0000
0000
,  // measure 772
0000
0000
0000
0000
,  // measure 773
0000
0000
0000
0000
,  // measure 774
0000
0000
0000
0000
0100
0000
0000
0000
0000
0000
0000
0000
,  // measure 775
0000
0000
0000
0000
,  // measure 776
0000
0000
0000
0000
,  // measure 777
0001
0000
0000
0000
,  // measure 778
0000
0000
0000
0000
,  // measure 779
0000
0000
0000
0000
,  // measure 780
0000
0000
0000
0000
,  // measure 781
0000
0000
0000
0000
,  // measure 782
0000
0000
0000
0000
0100
0000
0000
0000
0000
0000
0000
0000
,  // measure 783
0000
0000
0000
0000
,  // measure 784
0000
0000
0000
0000
,  // measure 785
0010
0000
0000
0000
,  // measure 786
0000
0000
0000
0000
,  // measure 787
0000
0000
0000
0000
,  // measure 788
0000
0000
0000
0000
,  // measure 789
0000
0000
0000
0000
,  // measure 790
0000
0000
0000
0000
1000
0000
0000
0000
0000
0000
0000
0000
,  // measure 791
0000
0000
0000
0000
,  // measure 792
0000
0000
0000
0000
,  // measure 793
0001
0000
0000
0000
,  // measure 794
0000
0000
0000
0000
,  // measure 795
0000
0000
0000
0000
,  // measure 796
0000
0000
0000
0000
,  // measure 797
0000
0000
0000
0000
,  // measure 798
0000
0000
0000
0000
0100
0000
0000
0000
0000
0000
0000
0000
,  // measure 799
0000
0000
0000
0000
,  // measure 800
0000
0000
0000
0000
,  // measure 801
1000
0000
0000
0000
,  // measure 802
0000
0000
0000
0000
,  // measure 803
0000
0000
0000
0000
0000
0000
0000
0000
0001
0000
0000
0000
,  // measure 804
0000
0000
0000
0000
,  // measure 805
0000
0000
0000
0000
,  // measure 806
0000
0000
0000
0000
1000
0000
0000
0000
0000
0000
0000
0000
,  // measure 807
0000
0000
0000
0000
,  // measure 808
0000
0000
0000
0000
,  // measure 809
0010
0000
0000
0000
,  // measure 810
0000
0000
0000
0000
,  // measure 811
0000
0000
0000
0000
0000
0000
0000
0000
0001
0000
0000
0000
,  // measure 812
0000
0000
0000
0000
,  // measure 813
0000
0000
0000
0000
,  // measure 814
0000
0000
0000
0000
0100
0000
0000
0000
0000
0000
0000
0000
,  // measure 815
0000
0000
0000
0000
,  // measure 816
0000
0000
0000
0000
,  // measure 817
0001
0000
0000
0000
,  // measure 818
0000
0000
0000
0000
,  // measure 819
0000
0000
0000
0000
0000
0000
0000
0000
1000
0000
0000
0000
,  // measure 820
0000
0000
0000
0000
,  // measure 821
0000
0000
0000
0000
,  // measure 822
0000
0000
0000
0000
0001
0000
0000
0000
0000
0000
0000
0000
,  // measure 823
0000
0000
0000
0000
,  // measure 824
0000
0000
0000
0000
,  // measure 825
0020
0000
0000
0000
,  // measure 826
0000
0000
0000
0000
,  // measure 827
0000
0000
0000
0000
,  // measure 828
0000
0000
0000
0000
,  // measure 829
0000
0000
0000
0000
,  // measure 830
0000
0000
0000
0000
,  // measure 831
0000
0000
0000
0000
,  // measure 832
0000
0000
0000
0000
,  // measure 833
0001
0000
0000
0000
,  // measure 834
0000
0000
0000
0000
,  // measure 835
0000
0000
0000
0000
0000
0000
0000
0000
1000
0000
0000
0000
,  // measure 836
0000
0000
0000
0000
,  // measure 837
0000
0000
0000
0000
,  // measure 838
0000
0000
0000
0000
0030
0000
0000
0000
0000
0000
0000
0000
,  // measure 839
0000
0000
0000
0000
,  // measure 840
0000
0000
0000
0000
,  // measure 841
1000
0000
0000
0000
,  // measure 842
0000
0000
0000
0000
,  // measure 843
0000
0000
0000
0000
,  // measure 844
0000
0000
0000
0000
,  // measure 845
0000
0000
0000
0000
,  // measure 846
0000
0000
0000
0000
0100
0000
0000
0000
0000
0000
0000
0000
,  // measure 847
0000
0000
0000
0000
,  // measure 848
0000
0000
0000
0000
,  // measure 849
0010
0000
0000
0000
,  // measure 850
0000
0000
0000
0000
,  // measure 851
0000
0000
0000
0000
,  // measure 852
0000
0000
0000
0000
,  // measure 853
0000
0000
0000
0000
,  // measure 854
0000
0000
0000
0000
0100
0000
0000
0000
0000
0000
0000
0000
,  // measure 855
0000
0000
0000
0000
,  // measure 856
0000
0000
0000
0000
,  // measure 857
1000
0000
0000
0000
,  // measure 858
0000
0000
0000
0000
,  // measure 859
0000
0000
0000
0000
,  // measure 860
0000
0000
0000
0000
,  // measure 861
0000
0000
0000
0000
,  // measure 862
0000
0000
0000
0000
0001
0000
0000
0000
0000
0000
0000
0000
,  // measure 863
0000
0000
0000
0000
,  // measure 864
0000
0000
0000
0000
,  // measure 865
0100
0000
0000
0000
,  // measure 866
0000
0000
0000
0000
,  // measure 867
0000
0000
0000
0000
0000
0000
0000
0000
0010
0000
0000
0000
,  // measure 868
0000
0000
0000
0000
,  // measure 869
0000
0000
0000
0000
,  // measure 870
0000
0000
0000
0000
0100
0000
0000
0000
0000
0000
0000
0000
,  // measure 871
0000
0000
0000
0000
,  // measure 872
0000
0000
0000
0000
,  // measure 873
0001
0000
0000
0000
,  // measure 874
0000
0000
0000
0000
,  // measure 875
0000
0000
0000
0000
0000
0000
0000
0000
0010
0000
0000
0000
,  // measure 876
0000
0000
0000
0000
,  // measure 877
0000
0000
0000
0000
,  // measure 878
0000
0000
0000
0000
0100
0000
0000
0000
0000
0000
0000
0000
,  // measure 879
0000
0000
0000
0000
,  // measure 880
0000
0000
0000
0000
,  // measure 881
0010
0000
0000
0000
,  // measure 882
0000
0000
0000
0000
,  // measure 883
0000
0000
0000
0000
,  // measure 884
0000
0000
0000
0000
,  // measure 885
0000
0000
0000
0000
,  // measure 886
0000
0000
0000
0000
1000
0000
0000
0000
0000
0000
0000
0000
,  // measure 887
0000
0000
0000
0000
,  // measure 888
0000
0000
0000
0000
,  // measure 889
0001
0000
0000
0000
,  // measure 890
0000
0000
0000
0000
,  // measure 891
0000
0000
0000
0000
,  // measure 892
0000
0000
0000
0000
,  // measure 893
0000
0000
0000
0000
,  // measure 894
0000
0000
0000
0000
,  // measure 895
0000
0000
0000
0000
,  // measure 896
0000
0000
0000
0000
,  // measure 897
1000
0000
0000
0000
,  // measure 898
0000
0000
0000
0000
,  // measure 899
0000
0000
0000
0000
0000
0000
0000
0000
0010
0000
0000
0000
,  // measure 900
0000
0000
0000
0000
,  // measure 901
0000
0000
0000
0000
,  // measure 902
0000
0000
0000
0000
0100
0000
0000
0000
0000
0000
0000
0000
,  // measure 903
0000
0000
0000
0000
,  // measure 904
0000
0000
0000
0000
,  // measure 905
0001
0000
0000
0000
,  // measure 906
0000
0000
0000
0000
,  // measure 907
0000
0000
0000
0000
,  // measure 908
0000
0000
0000
0000
,  // measure 909
0000
0000
0000
0000
,  // measure 910
0000
0000
0000
0000
0100
0000
0000
0000
0000
0000
0000
0000
,  // measure 911
0000
0000
0000
0000
,  // measure 912
0000
0000
0000
0000
,  // measure 913
0001
0000
0000
0000
,  // measure 914
0000
0000
0000
0000
,  // measure 915
0000
0000
0000
0000
,  // measure 916
0000
0000
0000
0000
,  // measure 917
0000
0000
0000
0000
,  // measure 918
0000
0000
0000
0000
1000
0000
0000
0000
0000
0000
0000
0000
,  // measure 919
0000
0000
0000
0000
,  // measure 920
0000
0000
0000
0000
,  // measure 921
0010
0000
0000
0000
,  // measure 922
0000
0000
0000
0000
,  // measure 923
0000
0000
0000
0000
,  // measure 924
0000
0000
0000
0000
,  // measure 925
0000
0000
0000
0000
,  // measure 926
0000
0000
0000
0000
0100
0000
0000
0000
0000
0000
0000
0000
,  // measure 927
0000
0000
0000
0000
,  // measure 928
0000
0000
0000
0000
,  // measure 929
0001
0000
0000
0000
,  // measure 930
0000
0000
0000
0000
,  // measure 931
0000
0000
0000
0000
0000
0000
0000
0000
0100
0000
0000
0000
,  // measure 932
0000
0000
0000
0000
,  // measure 933
0000
0000
0000
0000
,  // measure 934
0000
0000
0000
0000
0001
0000
0000
0000
0000
0000
0000
0000
,  // measure 935
0000
0000
0000
0000
,  // measure 936
0000
0000
0000
0000
,  // measure 937
1000
0000
0000
0000
,  // measure 938
0000
0000
0000
0000
,  // measure 939
0000
0000
0000
0000
0000
0000
0000
0000
0010
0000
0000
0000
,  // measure 940
0000
0000
0000
0000
,  // measure 941
0000
0000
0000
0000
,  // measure 942
0000
0000
0000
0000
1000
0000
0000
0000
0000
0000
0000
0000
,  // measure 943
0000
0000
0000
0000
,  // measure 944
0000
0000
0000
0000
,  // measure 945
0001
0000
0000
0000
,  // measure 946
0000
0000
0000
0000
,  // measure 947
0000
0000
0000
0000
0000
0000
0000
0000
1000
0000
0000
0000
,  // measure 948
0000
0000
0000
0000
,  // measure 949
0000
0000
0000
0000
,  // measure 950
0000
0000
0000
0000
0010
0000
0000
0000
0000
0000
0000
0000
,  // measure 951
0000
0000
0000
0000
,  // measure 952
0000
0000
0000
0000
,  // measure 953
0200
0000
0000
0000
,  // measure 954
0000
0000
0000
0000
,  // measure 955
0000
0000
0000
0000
,  // measure 956
0000
0000
0000
0000
,  // measure 957
0000
0000
0000
0000
,  // measure 958
0000
0000
0000
0000
,  // measure 959
0000
0000
0000
0000
,  // measure 960
0000
0000
0000
0000
,  // measure 961
0001
0000
0000
0000
,  // measure 962
0000
0000
0000
0000
,  // measure 963
0000
0000
0000
0000
0000
0000
0000
0000
0010
0000
0000
0000
,  // measure 964
0000
0000
0000
0000
,  // measure 965
0000
0000
0000
0000
,  // measure 966
0000
0000
0000
0000
0001
0000
0000
0000
0000
0000
0000
0000
,  // measure 967
0000
0000
0000
0000
,  // measure 968
0000
0000
0000
0000
,  // measure 969
0300
0000
0000
0000
,  // measure 970
0000
0000
0000
0000
,  // measure 971
0000
0000
0000
0000
,  // measure 972
0000
0000
0000
0000
,  // measure 973
0000
0000
0000
0000
,  // measure 974
0000
0000
0000
0000
1000
0000
0000
0000
0000
0000
0000
0000
,  // measure 975
0000
0000
0000
0000
,  // measure 976
0000
0000
0000
0000
,  // measure 977
0001
0000
0000
0000
,  // measure 978
0000
0000
0000
0000
,  // measure 979
0000
0000
0000
0000
0000
0000
0000
0000
0100
0000
0000
0000
,  // measure 980
0000
0000
0000
0000
,  // measure 981
0000
0000
0000
0000
,  // measure 982
0000
0000
0000
0000
0001
0000
0000
0000
0000
0000
0000
0000
,  // measure 983
0000
0000
0000
0000
,  // measure 984
0000
0000
0000
0000
,  // measure 985
0010
0000
0000
0000
,  // measure 986
0000
0000
0000
0000
,  // measure 987
0000
0000
0000
0000
,  // measure 988
0000
0000
0000
0000
,  // measure 989
0000
0000
0000
0000
,  // measure 990
0000
0000
0000
0000
0100
0000
0000
0000
0000
0000
0000
0000
,  // measure 991
0000
0000
0000
0000
,  // measure 992
0000
0000
0000
0000
,  // measure 993
1000
0000
0000
0000
,  // measure 994
0000
0000
0000
0000
,  // measure 995
0000
0000
0000
0000
0000
0000
0000
0000
0100
0000
0000
0000
,  // measure 996
0000
0000
0000
0000
,  // measure 997
0000
0000
0000
0000
,  // measure 998
0000
0000
0000
0000
1000
0000
0000
0000
0000
0000
0000
0000
,  // measure 999
0000
0000
0000
0000
,  // measure 1000
0000
0000
0000
0000
,  // measure 1001
0001
0000
0000
0000
,  // measure 1002
0000
0000
0000
0000
,  // measure 1003
0000
0000
0000
0000
,  // measure 1004
0000
0000
0000
0000
,  // measure 1005
0000
0000
0000
0000
,  // measure 1006
0000
0000
0000
0000
0100
0000
0000
0000
0000
0000
0000
0000
,  // measure 1007
0000
0000
0000
0000
,  // measure 1008
0000
0000
0000
0000
,  // measure 1009
0010
0000
0000
0000
,  // measure 1010
0000
0000
0000
0000
,  // measure 1011
0000
0000
0000
0000
,  // measure 1012
0000
0000
0000
0000
,  // measure 1013
0000
0000
0000
0000
,  // measure 1014
0000
0000
0000
0000
1000
0000
0000
0000
0000
0000
0000
0000
,  // measure 1015
0000
0000
0000
0000
,  // measure 1016
0000
0000
0000
0000
,  // measure 1017
0000
0000
0000
0000
,  // measure 1018
0000
0000
0000
0000
,  // measure 1019
0000
0000
0000
0000
0000
0000
0000
0000
0010
0000
0000
0000
,  // measure 1020
0000
0000
0000
0000
,  // measure 1021
0000
0000
0000
0000
,  // measure 1022
0000
0000
0000
0000
0100
0000
0000
0000
0000
0000
0000
0000
,  // measure 1023
0000
0000
0000
0000
,  // measure 1024
0000
0000
0000
0000
,  // measure 1025
0001
0000
0000
0000
,  // measure 1026
0000
0000
0000
0000
,  // measure 1027
0000
0000
0000
0000
0000
0000
0000
0000
0100
0000
0000
0000
,  // measure 1028
0000
0000
0000
0000
,  // measure 1029
0000
0000
0000
0000
,  // measure 1030
0000
0000
0000
0000
1000
0000
0000
0000
0000
0000
0000
0000
,  // measure 1031
0000
0000
0000
0000
,  // measure 1032
0000
0000
0000
0000
,  // measure 1033
0001
0000
0000
0000
,  // measure 1034
0000
0000
0000
0000
,  // measure 1035
0000
0000
0000
0000
,  // measure 1036
0000
0000
0000
0000
,  // measure 1037
0000
0000
0000
0000
,  // measure 1038
0000
0000
0000
0000
0100
0000
0000
0000
0000
0000
0000
0000
,  // measure 1039
0000
0000
0000
0000
,  // measure 1040
0000
0000
0000
0000
,  // measure 1041
0001
0000
0000
0000
,  // measure 1042
0000
0000
0000
0000
,  // measure 1043
0000
0000
0000
0000
0000
0000
0000
0000
0010
0000
0000
0000
,  // measure 1044
0000
0000
0000
0000
,  // measure 1045
0000
0000
0000
0000
,  // measure 1046
0000
0000
0000
0000
1000
0000
0000
0000
0000
0000
0000
0000
,  // measure 1047
0000
0000
0000
0000
,  // measure 1048
0000
0000
0000
0000
,  // measure 1049
0001
0000
0000
0000
,  // measure 1050
0000
0000
0000
0000
,  // measure 1051
0000
0000
0000
0000
,  // measure 1052
0000
0000
0000
0000
,  // measure 1053
0000
0000
0000
0000
,  // measure 1054
0000
0000
0000
0000
,  // measure 1055
0000
0000
0000
0000
,  // measure 1056
0000
0000
0000
0000
,  // measure 1057
0010
0000
0000
0000
,  // measure 1058
0000
0000
0000
0000
,  // measure 1059
0000
0000
0000
0000
0000
0000
0000
0000
0001
0000
0000
0000
,  // measure 1060
0000
0000
0000
0000
,  // measure 1061
0000
0000
0000
0000
,  // measure 1062
0000
0000
0000
0000
1000
0000
0000
0000
0000
0000
0000
0000
,  // measure 1063
0000
0000
0000
0000
,  // measure 1064
0000
0000
0000
0000
,  // measure 1065
0010
0000
0000
0000
,  // measure 1066
0000
0000
0000
0000
,  // measure 1067
0000
0000
0000
0000
0000
0000
0000
0000
0001
0000
0000
0000
,  // measure 1068
0000
0000
0000
0000
,  // measure 1069
0000
0000
0000
0000
,  // measure 1070
0000
0000
0000
0000
0100
0000
0000
0000
0000
0000
0000
0000
,  // measure 1071
0000
0000
0000
0000
,  // measure 1072
0000
0000
0000
0000
,  // measure 1073
0010
0000
0000
0000
,  // measure 1074
0000
0000
0000
0000
,  // measure 1075
0000
0000
0000
0000
0000
0000
0000
0000
1000
0000
0000
0000
,  // measure 1076
0000
0000
0000
0000
,  // measure 1077
0000
0000
0000
0000
,  // measure 1078
0000
0000
0000
0000
0010
0000
0000
0000
0000
0000
0000
0000
,  // measure 1079
0000
0000
0000
0000
,  // measure 1080
0000
0000
0000
0000
,  // measure 1081
1000
0000
0000
0000
,  // measure 1082
0000
0000
0000
0000
,  // measure 1083
0000
0000
0000
0000
0000
0000
0000
0000
0100
0000
0000
0000
,  // measure 1084
0000
0000
0000
0000
,  // measure 1085
0000
0000
0000
0000
,  // measure 1086
0000
0000
0000
0000
0001
0000
0000
0000
0000
0000
0000
0000
,  // measure 1087
0000
0000
0000
0000
,  // measure 1088
0000
0000
0000
0000
,  // measure 1089
0200
0000
0000
0000
,  // measure 1090
0000
0000
0000
0000
,  // measure 1091
0000
0000
0000
0000
,  // measure 1092
0000
0000
0000
0000
,  // measure 1093
0000
0000
0000
0000
,  // measure 1094
0000
0000
0000
0000
,  // measure 1095
0000
0000
0000
0000
,  // measure 1096
0000
0000
0000
0000
,  // measure 1097
0000
0000
0000
0000
,  // measure 1098
0000
0000
0000
0000
,  // measure 1099
0000
0000
0000
0000
,  // measure 1100
0000
0000
0000
0000
,  // measure 1101
0000
0000
0000
0000
,  // measure 1102
0000
0000
0000
0000
0010
0000
0000
0000
0000
0000
0000
0000
,  // measure 1103
0000
0000
0000
0000
,  // measure 1104
0000
0000
0000
0000
,  // measure 1105
0010
0000
0000
0000
,  // measure 1106
0000
0000
0000
0000
,  // measure 1107
0000
0000
0000
0000
,  // measure 1108
0000
0000
0000
0000
,  // measure 1109
0000
0000
0000
0000
,  // measure 1110
0000
0000
0000
0000
,  // measure 1111
0000
0000
0000
0000
,  // measure 1112
0000
0000
0000
0000
,  // measure 1113
0000
0000
0000
0000
,  // measure 1114
0000
0000
0000
0000
,  // measure 1115
0000
0000
0000
0000
0000
0000
0000
0000
0001
0000
0000
0000
,  // measure 1116
0000
0000
0000
0000
,  // measure 1117
0000
0000
0000
0000
,  // measure 1118
0000
0000
0000
0000
0300
0000
0000
0000
0000
0000
0000
0000
,  // measure 1119
0000
0000
0000
0000
,  // measure 1120
0000
0000
0000
0000
,  // measure 1121
0001
0000
0000
0000
,  // measure 1122
0000
0000
0000
0000
,  // measure 1123
0000
0000
0000
0000
0000
0000
0000
0000
0100
0000
0000
0000
,  // measure 1124
0000
0000
0000
0000
,  // measure 1125
0000
0000
0000
0000
,  // measure 1126
0000
0000
0000
0000
0001
0000
0000
0000
0000
0000
0000
0000
,  // measure 1127
0000
0000
0000
0000
,  // measure 1128
0000
0000
0000
0000
,  // measure 1129
0010
0000
0000
0000
,  // measure 1130
0000
0000
0000
0000
,  // measure 1131
0000
0000
0000
0000
0000
0000
0000
0000
0001
0000
0000
0000
,  // measure 1132
0000
0000
0000
0000
,  // measure 1133
0000
0000
0000
0000
,  // measure 1134
0000
0000
0000
0000
0010
0000
0000
0000
0000
0000
0000
0000
,  // measure 1135
0000
0000
0000
0000
,  // measure 1136
0000
0000
0000
0000
,  // measure 1137
0100
0000
0000
0000
,  // measure 1138
0000
0000
0000
0000
,  // measure 1139
0000
0000
0000
0000
0000
0000
0000
0000
0001
0000
0000
0000
,  // measure 1140
0000
0000
0000
0000
,  // measure 1141
0000
0000
0000
0000
,  // measure 1142
0000
0000
0000
0000
1000
0000
0000
0000
0000
0000
0000
0000
,  // measure 1143
0000
0000
0000
0000
,  // measure 1144
0000
0000
0000
0000
,  // measure 1145
0001
0000
0000
0000
,  // measure 1146
0000
0000
0000
0000
,  // measure 1147
0000
0000
0000
0000
0000
0000
0000
0000
0100
0000
0000
0000
,  // measure 1148
0000
0000
0000
0000
,  // measure 1149
0000
0000
0000
0000
,  // measure 1150
0000
0000
0000
0000
0001
0000
0000
0000
0000
0000
0000
0000
,  // measure 1151
0000
0000
0000
0000
,  // measure 1152
0000
0000
0000
0000
,  // measure 1153
0200
0000
0000
0000
,  // measure 1154
0000
0000
0000
0000
,  // measure 1155
0000
0000
0000
0000
,  // measure 1156
0000
0000
0000
0000
,  // measure 1157
0000
0000
0000
0000
,  // measure 1158
0000
0000
0000
0000
,  // measure 1159
0000
0000
0000
0000
,  // measure 1160
0000
0000
0000
0000
,  // measure 1161
0000
0000
0000
0000
,  // measure 1162
0000
0000
0000
0000
,  // measure 1163
0000
0000
0000
0000
,  // measure 1164
0000
0000
0000
0000
,  // measure 1165
0000
0000
0000
0000
,  // measure 1166
0000
0000
0000
0000
,  // measure 1167
0000
0000
0000
0000
,  // measure 1168
0000
0000
0000
0000
,  // measure 1169
0020
0000
0000
0000
,  // measure 1170
0000
0000
0000
0000
,  // measure 1171
0000
0000
0000
0000
,  // measure 1172
0000
0000
0000
0000
,  // measure 1173
0000
0000
0000
0000
,  // measure 1174
0000
0000
0000
0000
,  // measure 1175
0000
0000
0000
0000
,  // measure 1176
0000
0000
0000
0000
,  // measure 1177
0000
0000
0000
0000
,  // measure 1178
0000
0000
0000
0000
,  // measure 1179
0000
0000
0000
0000
,  // measure 1180
0000
0000
0000
0000
,  // measure 1181
0000
0000
0000
0000
,  // measure 1182
0000
0000
0000
0000
,  // measure 1183
0000
0000
0000
0000
,  // measure 1184
0000
0000
0000
0000
,  // measure 1185
0300
0000
0000
0000
,  // measure 1186
0000
0000
0000
0000
,  // measure 1187
0000
0000
0000
0000
0000
0000
0000
0000
0001
0000
0000
0000
,  // measure 1188
0000
0000
0000
0000
,  // measure 1189
0000
0000
0000
0000
,  // measure 1190
0000
0000
0000
0000
0100
0000
0000
0000
0000
0000
0000
0000
,  // measure 1191
0000
0000
0000
0000
,  // measure 1192
0000
0000
0000
0000
,  // measure 1193
0030
0000
0000
0000
,  // measure 1194
0000
0000
0000
0000
,  // measure 1195
0000
0000
0000
0000
0000
0000
0000
0000
0100
0000
0000
0000
,  // measure 1196
0000
0000
0000
0000
,  // measure 1197
0000
0000
0000
0000
,  // measure 1198
0000
0000
0000
0000
0010
0000
0000
0000
0000
0000
0000
0000
,  // measure 1199
0000
0000
0000
0000
,  // measure 1200
0000
0000
0000
0000
,  // measure 1201
0100
0000
0000
0000
,  // measure 1202
0000
0000
0000
0000
,  // measure 1203
0000
0000
0000
0000
0000
0000
0000
0000
1000
0000
0000
0000
,  // measure 1204
0000
0000
0000
0000
,  // measure 1205
0000
0000
0000
0000
,  // measure 1206
0000
0000
0000
0000
0100
0000
0000
0000
0000
0000
0000
0000
,  // measure 1207
0000
0000
0000
0000
,  // measure 1208
0000
0000
0000
0000
,  // measure 1209
0001
0000
0000
0000
,  // measure 1210
0000
0000
0000
0000
,  // measure 1211
0000
0000
0000
0000
0000
0000
0000
0000
0100
0000
0000
0000
,  // measure 1212
0000
0000
0000
0000
,  // measure 1213
0000
0000
0000
0000
,  // measure 1214
0000
0000
0000
0000
0001
0000
0000
0000
0000
0000
0000
0000
,  // measure 1215
0000
0000
0000
0000
,  // measure 1216
0000
0000
0000
0000
,  // measure 1217
0100
0000
0000
0000
,  // measure 1218
0000
0000
0000
0000
,  // measure 1219
0000
0000
0000
0000
0000
0000
0000
0000
0010
0000
0000
0000
,  // measure 1220
0000
0000
0000
0000
,  // measure 1221
0000
0000
0000
0000
,  // measure 1222
0000
0000
0000
0000
,  // measure 1223
0000
0000
0000
0000
,  // measure 1224
0000
0000
0000
0000
,  // measure 1225
1000
0000
0000
0000
,  // measure 1226
0000
0000
0000
0000
,  // measure 1227
0000
0000
0000
0000
,  // measure 1228
0000
0000
0000
0000
,  // measure 1229
0000
0000
0000
0000
,  // measure 1230
0000
0000
0000
0000
0100
0000
0000
0000
0000
0000
0000
0000
,  // measure 1231
0000
0000
0000
0000
,  // measure 1232
0000
0000
0000
0000
,  // measure 1233
0010
0000
0000
0000
,  // measure 1234
0000
0000
0000
0000
,  // measure 1235
0000
0000
0000
0000
0000
0000
0000
0000
0100
0000
0000
0000
,  // measure 1236
0000
0000
0000
0000
,  // measure 1237
0000
0000
0000
0000
,  // measure 1238
0000
0000
0000
0000
,  // measure 1239
0000
0000
0000
0000
,  // measure 1240
0000
0000
0000
0000
,  // measure 1241
1000
0000
0000
0000
,  // measure 1242
0000
0000
0000
0000
,  // measure 1243
0000
0000
0000
0000
,  // measure 1244
0000
0000
0000
0000
,  // measure 1245
0000
0000
0000
0000
,  // measure 1246
0000
0000
0000
0000
0010
0000
0000
0000
0000
0000
0000
0000
,  // measure 1247
0000
0000
0000
0000
,  // measure 1248
0000
0000
0000
0000
,  // measure 1249
0100
0000
0000
0000
,  // measure 1250
0000
0000
0000
0000
,  // measure 1251
0000
0000
0000
0000
,  // measure 1252
0000
0000
0000
0000
,  // measure 1253
0000
0000
0000
0000
,  // measure 1254
0000
0000
0000
0000
0100
0000
0000
0000
0000
0000
0000
0000
,  // measure 1255
0000
0000
0000
0000
,  // measure 1256
0000
0000
0000
0000
,  // measure 1257
0000
0000
0000
0000
,  // measure 1258
0000
0000
0000
0000
,  // measure 1259
0000
0000
0000
0000
,  // measure 1260
0000
0000
0000
0000
,  // measure 1261
0000
0000
0000
0000
,  // measure 1262
0000
0000
0000
0000
0001
0000
0000
0000
0000
0000
0000
0000
,  // measure 1263
0000
0000
0000
0000
,  // measure 1264
0000
0000
0000
0000
,  // measure 1265
0100
0000
0000
0000
,  // measure 1266
0000
0000
0000
0000
,  // measure 1267
0000
0000
0000
0000
0000
0000
0000
0000
0001
0000
0000
0000
,  // measure 1268
0000
0000
0000
0000
,  // measure 1269
0000
0000
0000
0000
,  // measure 1270
0000
0000
0000
0000
,  // measure 1271
0000
0000
0000
0000
,  // measure 1272
0000
0000
0000
0000
,  // measure 1273
0001
0000
0000
0000
,  // measure 1274
0000
0000
0000
0000
,  // measure 1275
0000
0000
0000
0000
,  // measure 1276
0000
0000
0000
0000
,  // measure 1277
0000
0000
0000
0000
,  // measure 1278
0000
0000
0000
0000
,  // measure 1279
0000
0000
0000
0000
,  // measure 1280
0000
0000
0000
0000
,  // measure 1281
0010
0000
0000
0000
,  // measure 1282
0000
0000
0000
0000
,  // measure 1283
0000
0000
0000
0000
0000
0000
0000
0000
0100
0000
0000
0000
,  // measure 1284
0000
0000
0000
0000
,  // measure 1285
0000
0000
0000
0000
,  // measure 1286
0000
0000
0000
0000
,  // measure 1287
0000
0000
0000
0000
,  // measure 1288
0000
0000
0000
0000
,  // measure 1289
1000
0000
0000
0000
,  // measure 1290
0000
0000
0000
0000
,  // measure 1291
0000
0000
0000
0000
,  // measure 1292
0000
0000
0000
0000
,  // measure 1293
0000
0000
0000
0000
,  // measure 1294
0000
0000
0000
0000
0010
0000
0000
0000
0000
0000
0000
0000
,  // measure 1295
0000
0000
0000
0000
,  // measure 1296
0000
0000
0000
0000
,  // measure 1297
0100
0000
0000
0000
,  // measure 1298
0000
0000
0000
0000
,  // measure 1299
0000
0000
0000
0000
0000
0000
0000
0000
0010
0000
0000
0000
,  // measure 1300
0000
0000
0000
0000
,  // measure 1301
0000
0000
0000
0000
,  // measure 1302
0000
0000
0000
0000
0100
0000
0000
0000
0000
0000
0000
0000
,  // measure 1303
0000
0000
0000
0000
,  // measure 1304
0000
0000
0000
0000
,  // measure 1305
0001
0000
0000
0000
,  // measure 1306
0000
0000
0000
0000
,  // measure 1307
0000
0000
0000
0000
,  // measure 1308
0000
0000
0000
0000
,  // measure 1309
0000
0000
0000
0000
,  // measure 1310
0000
0000
0000
0000
0100
0000
0000
0000
0000
0000
0000
0000
,  // measure 1311
0000
0000
0000
0000
,  // measure 1312
0000
0000
0000
0000
,  // measure 1313
0000
0000
0000
0000
,  // measure 1314
0000
0000
0000
0000
,  // measure 1315
0000
0000
0000
0000
0000
0000
0000
0000
0100
0000
0000
0000
,  // measure 1316
0000
0000
0000
0000
,  // measure 1317
0000
0000
0000
0000
,  // measure 1318
0000
0000
0000
0000
,  // measure 1319
0000
0000
0000
0000
,  // measure 1320
0000
0000
0000
0000
,  // measure 1321
1000
0000
0000
0000
,  // measure 1322
0000
0000
0000
0000
,  // measure 1323
0000
0000
0000
0000
,  // measure 1324
0000
0000
0000
0000
,  // measure 1325
0000
0000
0000
0000
,  // measure 1326
0000
0000
0000
0000
1000
0000
0000
0000
0000
0000
0000
0000
,  // measure 1327
0000
0000
0000
0000
,  // measure 1328
0000
0000
0000
0000
,  // measure 1329
0000
0000
0000
0000
,  // measure 1330
0000
0000
0000
0000
,  // measure 1331
0000
0000
0000
0000
0000
0000
0000
0000
0010
0000
0000
0000
,  // measure 1332
0000
0000
0000
0000
,  // measure 1333
0000
0000
0000
0000
,  // measure 1334
0000
0000
0000
0000
0100
0000
0000
0000
0000
0000
0000
0000
,  // measure 1335
0000
0000
0000
0000
,  // measure 1336
0000
0000
0000
0000
,  // measure 1337
0001
0000
0000
0000
,  // measure 1338
0000
0000
0000
0000
,  // measure 1339
0000
0000
0000
0000
,  // measure 1340
0000
0000
0000
0000
,  // measure 1341
0000
0000
0000
0000
,  // measure 1342
0000
0000
0000
0000
,  // measure 1343
0000
0000
0000
0000
,  // measure 1344
0000
0000
0000
0000
,  // measure 1345
1000
0000
0000
0000
,  // measure 1346
0000
0000
0000
0000
,  // measure 1347
0000
0000
0000
0000
0000
0000
0000
0000
0100
0000
0000
0000
,  // measure 1348
0000
0000
0000
0000
,  // measure 1349
0000
0000
0000
0000
,  // measure 1350
0000
0000
0000
0000
1000
0000
0000
0000
0000
0000
0000
0000
,  // measure 1351
0000
0000
0000
0000
,  // measure 1352
0000
0000
0000
0000
,  // measure 1353
0001
0000
0000
0000
,  // measure 1354
0000
0000
0000
0000
,  // measure 1355
0000
0000
0000
0000
0000
0000
0000
0000
0100
0000
0000
0000
,  // measure 1356
0000
0000
0000
0000
,  // measure 1357
0000
0000
0000
0000
,  // measure 1358
0000
0000
0000
0000
0010
0000
0000
0000
0000
0000
0000
0000
,  // measure 1359
0000
0000
0000
0000
,  // measure 1360
0000
0000
0000
0000
,  // measure 1361
0001
0000
0000
0000
,  // measure 1362
0000
0000
0000
0000
,  // measure 1363
0000
0000
0000
0000
0000
0000
0000
0000
1000
0000
0000
0000
,  // measure 1364
0000
0000
0000
0000
,  // measure 1365
0000
0000
0000
0000
,  // measure 1366
0000
0000
0000
0000
0100
0000
0000
0000
0000
0000
0000
0000
,  // measure 1367
0000
0000
0000
0000
,  // measure 1368
0000
0000
0000
0000
,  // measure 1369
0010
0000
0000
0000
,  // measure 1370
0000
0000
0000
0000
,  // measure 1371
0000
0000
0000
0000
0000
0000
0000
0000
0001
0000
0000
0000
,  // measure 1372
0000
0000
0000
0000
,  // measure 1373
0000
0000
0000
0000
,  // measure 1374
0000
0000
0000
0000
1000
0000
0000
0000
0000
0000
0000
0000
,  // measure 1375
0000
0000
0000
0000
,  // measure 1376
0000
0000
0000
0000
,  // measure 1377
0001
0000
0000
0000
,  // measure 1378
0000
0000
0000
0000
,  // measure 1379
0000
0000
0000
0000
0000
0000
0000
0000
0100
0000
0000
0000
,  // measure 1380
0000
0000
0000
0000
,  // measure 1381
0000
0000
0000
0000
,  // measure 1382
0000
0000
0000
0000
0001
0000
0000
0000
0000
0000
0000
0000
,  // measure 1383
0000
0000
0000
0000
,  // measure 1384
0000
0000
0000
0000
,  // measure 1385
1000
0000
0000
0000
,  // measure 1386
0000
0000
0000
0000
,  // measure 1387
0000
0000
0000
0000
0000
0000
0000
0000
0100
0000
0000
0000
,  // measure 1388
0000
0000
0000
0000
,  // measure 1389
0000
0000
0000
0000
,  // measure 1390
0000
0000
0000
0000
0010
0000
0000
0000
0000
0000
0000
0000
,  // measure 1391
0000
0000
0000
0000
,  // measure 1392
0000
0000
0000
0000
,  // measure 1393
1000
0000
0000
0000
,  // measure 1394
0000
0000
0000
0000
,  // measure 1395
0000
0000
0000
0000
0000
0000
0000
0000
0001
0000
0000
0000
,  // measure 1396
0000
0000
0000
0000
,  // measure 1397
0000
0000
0000
0000
,  // measure 1398
0000
0000
0000
0000
0100
0000
0000
0000
0000
0000
0000
0000
,  // measure 1399
0000
0000
0000
0000
,  // measure 1400
0000
0000
0000
0000
,  // measure 1401
0010
0000
0000
0000
,  // measure 1402
0000
0000
0000
0000
,  // measure 1403
0000
0000
0000
0000
,  // measure 1404
0000
0000
0000
0000
,  // measure 1405
0000
0000
0000
0000
,  // measure 1406
0000
0000
0000
0000
,  // measure 1407
0000
0000
0000
0000
,  // measure 1408
0000
0000
0000
0000
,  // measure 1409
0100
0000
0000
0000
,  // measure 1410
0000
0000
0000
0000
,  // measure 1411
0000
0000
0000
0000
0000
0000
0000
0000
0001
0000
0000
0000
,  // measure 1412
0000
0000
0000
0000
,  // measure 1413
0000
0000
0000
0000
,  // measure 1414
0000
0000
0000
0000
1000
0000
0000
0000
0000
0000
0000
0000
,  // measure 1415
0000
0000
0000
0000
,  // measure 1416
0000
0000
0000
0000
,  // measure 1417
0100
0000
0000
0000
,  // measure 1418
0000
0000
0000
0000
,  // measure 1419
0000
0000
0000
0000
0000
0000
0000
0000
1000
0000
0000
0000
,  // measure 1420
0000
0000
0000
0000
,  // measure 1421
0000
0000
0000
0000
,  // measure 1422
0000
0000
0000
0000
0010
0000
0000
0000
0000
0000
0000
0000
,  // measure 1423
0000
0000
0000
0000
,  // measure 1424
0000
0000
0000
0000
,  // measure 1425
0001
0000
0000
0000
,  // measure 1426
0000
0000
0000
0000
,  // measure 1427
0000
0000
0000
0000
0000
0000
0000
0000
0010
0000
0000
0000
,  // measure 1428
0000
0000
0000
0000
,  // measure 1429
0000
0000
0000
0000
,  // measure 1430
0000
0000
0000
0000
1000
0000
0000
0000
0000
0000
0000
0000
,  // measure 1431
0000
0000
0000
0000
,  // measure 1432
0000
0000
0000
0000
,  // measure 1433
0001
0000
0000
0000
,  // measure 1434
0000
0000
0000
0000
,  // measure 1435
0000
0000
0000
0000
0000
0000
0000
0000
0100
0000
0000
0000
,  // measure 1436
0000
0000
0000
0000
,  // measure 1437
0000
0000
0000
0000
,  // measure 1438
0000
0000
0000
0000
0010
0000
0000
0000
0000
0000
0000
0000
,  // measure 1439
0000
0000
0000
0000
,  // measure 1440
0000
0000
0000
0000
,  // measure 1441
0100
0000
0000
0000
,  // measure 1442
0000
0000
0000
0000
,  // measure 1443
0000
0000
0000
0000
0000
0000
0000
0000
0001
0000
0000
0000
,  // measure 1444
0000
0000
0000
0000
,  // measure 1445
0000
0000
0000
0000
,  // measure 1446
0000
0000
0000
0000
0100
0000
0000
0000
0000
0000
0000
0000
,  // measure 1447
0000
0000
0000
0000
,  // measure 1448
0000
0000
0000
0000
,  // measure 1449
1000
0000
0000
0000
,  // measure 1450
0000
0000
0000
0000
,  // measure 1451
0000
0000
0000
0000
0000
0000
0000
0000
0100
0000
0000
0000
,  // measure 1452
0000
0000
0000
0000
,  // measure 1453
0000
0000
0000
0000
,  // measure 1454
0000
0000
0000
0000
1000
0000
0000
0000
0000
0000
0000
0000
,  // measure 1455
0000
0000
0000
0000
,  // measure 1456
0000
0000
0000
0000
,  // measure 1457
0001
0000
0000
0000
,  // measure 1458
0000
0000
0000
0000
,  // measure 1459
0000
0000
0000
0000
0000
0000
0000
0000
0010
0000
0000
0000
,  // measure 1460
0000
0000
0000
0000
,  // measure 1461
0000
0000
0000
0000
,  // measure 1462
0000
0000
0000
0000
0100
0000
0000
0000
0000
0000
0000
0000
,  // measure 1463
0000
0000
0000
0000
,  // measure 1464
0000
0000
0000
0000
,  // measure 1465
0020
0000
0000
0000
,  // measure 1466
0000
0000
0000
0000
,  // measure 1467
0000
0000
0000
0000
,  // measure 1468
0000
0000
0000
0000
,  // measure 1469
0000
0000
0000
0000
,  // measure 1470
0000
0000
0000
0000
,  // measure 1471
0000
0000
0000
0000
,  // measure 1472
0000
0000
0000
0000
,  // measure 1473
0000
0000
0000
0000
,  // measure 1474
0000
0000
0000
0000
,  // measure 1475
0000
0000
0000
0000
0000
0000
0000
0000
0100
0000
0000
0000
,  // measure 1476
0000
0000
0000
0000
,  // measure 1477
0000
0000
0000
0000
,  // measure 1478
0000
0000
0000
0000
0030
0000
0000
0000
0000
0000
0000
0000
,  // measure 1479
0000
0000
0000
0000
,  // measure 1480
0000
0000
0000
0000
,  // measure 1481
1000
0000
0000
0000
,  // measure 1482
0000
0000
0000
0000
,  // measure 1483
0000
0000
0000
0000
0000
0000
0000
0000
0100
0000
0000
0000
,  // measure 1484
0000
0000
0000
0000
,  // measure 1485
0000
0000
0000
0000
,  // measure 1486
0000
0000
0000
0000
0010
0000
0000
0000
0000
0000
0000
0000
,  // measure 1487
0000
0000
0000
0000
,  // measure 1488
0000
0000
0000
0000
,  // measure 1489
0001
0000
0000
0000
,  // measure 1490
0000
0000
0000
0000
,  // measure 1491
0000
0000
0000
0000
0000
0000
0000
0000
0010
0000
0000
0000
,  // measure 1492
0000
0000
0000
0000
,  // measure 1493
0000
0000
0000
0000
,  // measure 1494
0000
0000
0000
0000
0100
0000
0000
0000
0000
0000
0000
0000
,  // measure 1495
0000
0000
0000
0000
,  // measure 1496
0000
0000
0000
0000
,  // measure 1497
0020
0000
0000
0000
,  // measure 1498
0000
0000
0000
0000
,  // measure 1499
0000
0000
0000
0000
,  // measure 1500
0000
0000
0000
0000
,  // measure 1501
0000
0000
0000
0000
,  // measure 1502
0000
0000
0000
0000
,  // measure 1503
0000
0000
0000
0000
,  // measure 1504
0000
0000
0000
0000
,  // measure 1505
0000
0000
0000
0000
,  // measure 1506
0000
0000
0000
0000
,  // measure 1507
0000
0000
0000
0000
0000
0000
0000
0000
1000
0000
0000
0000
,  // measure 1508
0000
0000
0000
0000
,  // measure 1509
0000
0000
0000
0000
,  // measure 1510
0000
0000
0000
0000
0030
0000
0000
0000
0000
0000
0000
0000
,  // measure 1511
0000
0000
0000
0000
,  // measure 1512
0000
0000
0000
0000
,  // measure 1513
0000
0000
0000
0000
,  // measure 1514
0000
0000
0000
0000
,  // measure 1515
0000
0000
0000
0000
0000
0000
0000
0000
0001
0000
0000
0000
,  // measure 1516
0000
0000
0000
0000
,  // measure 1517
0000
0000
0000
0000
,  // measure 1518
0000
0000
0000
0000
0010
0000
0000
0000
0000
0000
0000
0000
,  // measure 1519
0000
0000
0000
0000
,  // measure 1520
0000
0000
0000
0000
,  // measure 1521
0000
0000
0000
0000
,  // measure 1522
0000
0000
0000
0000
,  // measure 1523
0000
0000
0000
0000
0000
0000
0000
0000
1000
0000
0000
0000
,  // measure 1524
0000
0000
0000
0000
,  // measure 1525
0000
0000
0000
0000
,  // measure 1526
0000
0000
0000
0000
0010
0000
0000
0000
0000
0000
0000
0000
,  // measure 1527
0000
0000
0000
0000
,  // measure 1528
0000
0000
0000
0000
,  // measure 1529
0000
0000
0000
0000
,  // measure 1530
0000
0000
0000
0000
,  // measure 1531
0000
0000
0000
0000
0000
0000
0000
0000
0001
0000
0000
0000
,  // measure 1532
0000
0000
0000
0000
,  // measure 1533
0000
0000
0000
0000
,  // measure 1534
0000
0000
0000
0000
0010
0000
0000
0000
0000
0000
0000
0000
,  // measure 1535
0000
0000
0000
0000
,  // measure 1536
0000
0000
0000
0000
,  // measure 1537
0000
0000
0000
0000
,  // measure 1538
0000
0000
0000
0000
,  // measure 1539
0000
0000
0000
0000
0000
0000
0000
0000
1000
0000
0000
0000
,  // measure 1540
0000
0000
0000
0000
,  // measure 1541
0000
0000
0000
0000
,  // measure 1542
0000
0000
0000
0000
0010
0000
0000
0000
0000
0000
0000
0000
,  // measure 1543
0000
0000
0000
0000
,  // measure 1544
0000
0000
0000
0000
,  // measure 1545
0001
0000
0000
0000
,  // measure 1546
0000
0000
0000
0000
,  // measure 1547
0000
0000
0000
0000
0000
0000
0000
0000
1000
0000
0000
0000
,  // measure 1548
0000
0000
0000
0000
,  // measure 1549
0000
0000
0000
0000
,  // measure 1550
0000
0000
0000
0000
0010
0000
0000
0000
0000
0000
0000
0000
,  // measure 1551
0000
0000
0000
0000
,  // measure 1552
0000
0000
0000
0000
,  // measure 1553
1000
0000
0000
0000
,  // measure 1554
0000
0000
0000
0000
,  // measure 1555
0000
0000
0000
0000
0000
0000
0000
0000
0100
0000
0000
0000
,  // measure 1556
0000
0000
0000
0000
,  // measure 1557
0000
0000
0000
0000
,  // measure 1558
0000
0000
0000
0000
1000
0000
0000
0000
0000
0000
0000
0000
;
